http://soft-zone.darkbb.com
Bienvenidos Si Quieres Ser Parte De El Staff De http://soft-zone.darkbb.com ?
Tu Eres Quien Elige .
NUEVA DIRECCION
Estaremos Funcionando En Esta Direccion http://buenosresultados.com//
Últimos temas
» Windows Server 2008 SP1 Todo En Uno DVD Spanish
Miér 4 Feb - 20:46 por roberthcr1186

» AIO Electronic Software Suite 3
Sáb 4 Ene - 5:35 por P7ST7R

» NOTICIAS!!!!
Jue 28 Nov - 18:58 por zack1404

» nueva direccion
Jue 28 Nov - 18:41 por zack1404

» nueva direccion
Jue 28 Nov - 18:41 por zack1404

» nueva direccion
Jue 28 Nov - 18:40 por zack1404

» nueva direccion
Jue 28 Nov - 18:40 por zack1404

» nueva direccion
Jue 28 Nov - 18:39 por zack1404

» nueva direccion
Jue 28 Nov - 18:38 por zack1404

» nueva direccion
Jue 28 Nov - 18:38 por zack1404

» nueva direccion
Jue 28 Nov - 18:38 por zack1404

» nueva direccion
Jue 28 Nov - 18:37 por zack1404

» nueva direccion
Jue 28 Nov - 18:37 por zack1404

» nueva direccion
Jue 28 Nov - 18:35 por zack1404

» nueva direccion
Jue 28 Nov - 18:34 por zack1404

» Michael Jackson & Janet Jackson - Scream (Video Clip) DVDrip
Jue 28 Nov - 18:32 por zack1404

» Un Pack de Colección
Miér 27 Nov - 22:36 por zack1404

» NOTICIAS!!!!
Miér 27 Nov - 22:29 por zack1404

» 100 audiolibros quinta Parte
Dom 7 Abr - 16:07 por augusthug

» Windows 7 Total Autoactivado DVD [Español][*ISO][Booteable]
Jue 28 Mar - 5:46 por mvisocom

» DISCOGRAFIA DEL GRUPO NICHE -actualizada
Sáb 19 Ene - 23:26 por felixmayz

» Colección de Libros sobre Hacking
Miér 14 Nov - 13:44 por jovanu

» Manual de herrería
Lun 12 Nov - 1:42 por elsiervo26

» Teu Liberacion de Celulares
Miér 7 Nov - 15:07 por jovanu

» Todo En Uno: Xp + Win7 + Programas V3
Miér 31 Oct - 21:41 por K1K3R0

» Dr. House 4° Temporada Completa [Latino][DvdRip]
Miér 31 Oct - 6:28 por bicho12344

» karaoke AIO
Mar 25 Sep - 3:48 por norman

» Musica hondureña para tus fiestas
Sáb 22 Sep - 15:32 por salvashocker

» Crackers Kit 2012 Todas Las Herramientas Para Crackers
Sáb 15 Sep - 21:38 por JUANI_I

» 100 audiolibros cuarta Parte
Mar 11 Sep - 12:46 por elenaricopedraza

Buscar
 
 

Resultados por:
 


Rechercher Búsqueda avanzada

Estadísticas
Tenemos 458 miembros registrados.
El último usuario registrado es Siscu.

Nuestros miembros han publicado un total de 2195 mensajes en 1708 argumentos.
Conectarse

Recuperar mi contraseña

¿Quién está en línea?
En total hay 14 usuarios en línea: 0 Registrados, 0 Ocultos y 14 Invitados

Ninguno

[ Ver toda la lista ]


La mayor cantidad de usuarios en línea fue 66 el Lun 7 Dic - 17:59.

La Era de Hielo 3 [2009] Esp.Latino[dvdrip]RS-MU

Ver el tema anterior Ver el tema siguiente Ir abajo

10082009

Mensaje 

La Era de Hielo 3 [2009] Esp.Latino[dvdrip]RS-MU




La Era de Hielo 3 [2009] Esp.Latino[dvdrip]RS-MU






La Era de Hielo 3 (2009) DVDRIP Latino
Dvdrip| Español Latino | 699 MB | AVI | Animación | 2009



Ficha Técnica

Título Latino: La Era de Hielo 3
Título Español: Ice Age 3: El Origen De Los Dinosaurios
Título Original: Ice Age: Dawn Of The Dinosaurs
Género: Animación, Aventuras
Nacionalidad: USA
Año: 2009
Director: Carlos Saldanha
Guión: Michael Berg, Peter Ackerman
Reparto: [Voces V.O.] Ray Romano, John Leguizamo, Denis Leary, Simon Pegg, Queen Latifah
Fecha de Estreno: Jueves, 02 de Julio de 2009


Sipnosis :

Tercera entrega de Ice Age. Los héroes bajo cero de las mundialmente famosas películas Ice Age: La Edad de Hielo y Ice Age 2: El Deshielo están de vuelta, con una aventura increíble…, y eterna. Scrat sigue intentando apoderarse de la muy escurridiza bellota (mientras, tal vez, encuentra el verdadero amor); Manny y Ellie esperan el nacimiento de su mini-mamut; Sid, el perezoso, se mete en un buen lío al formar de repente una familia propia tras encontrarse unos huevos de dinosaurio; y Diego, el tigre de dientes de sable, se pregunta si pasar tanto tiempo con sus amigos no le estará volviendo demasiado “blandito”. Con el fin de salvar al infortunado Sid, la pandilla se adentra en un misterioso mundo subterráneo, donde tienen algunos enfrentamientos con los dinosaurios, lidian con una enloquecida flora y fauna, y conocen a una comadreja tuerta e implacable cazadora de dinosaurios llamada Buck.

General
Format : AVI
Format/Info : Audio Video Interleave
File size : 699 MiB
Duration : 1h 30mn
Overall bit rate : 1 084 Kbps
Writing application : VirtualDubMod 1.5.10.2 (build 2540/release)
Writing library : VirtualDubMod build 2540/release
Video
Format : MPEG-4 Visual
Format profile : Streaming Video@L1
Format settings, BVOP : Yes
Format settings, QPel : No
Format settings, GMC : No warppoints
Format settings, Matrix : Default
Codec ID : XVID
Codec ID/Hint : XviD
Duration : 1h 30mn
Bit rate : 947 Kbps
Width : 640 pixels
Height : 352 pixels
Display aspect ratio : 16/9
Frame rate : 25.000 fps
Resolution : 24 bits
Colorimetry : 4:2:0
Scan type : Progressive
Bits/(Pixel*Frame) : 0.168
Stream size : 611 MiB (87%)
Writing library : XviD 1.1.2 (UTC 2006-11-01)
Audio
Format : AC-3
Format/Info : Audio Coding 3
Codec ID : 2000
Duration : 1h 30mn
Bit rate mode : Constant
Bit rate : 128 Kbps
Channel(s) : 2 channels
Channel positions : L R
Sampling rate : 48.0 KHz
Stream size : 82.6 MiB (12%)
Alignment : Split accross interleaves
Interleave, duration : 40 ms (1.00 video frame)
Interleave, preload duration : 500 ms

Capturas :







Sample :

http://www.megaupload.com/?d=68US6PIZ
http://rapidshare.com/files/26563987...10.preview.avi

Rapidshare

http://rapidshare.com/files/26550076...ka10.part1.rar
http://rapidshare.com/files/26550800...ka10.part2.rar
http://rapidshare.com/files/26551501...ka10.part3.rar
http://rapidshare.com/files/26552172...ka10.part4.rar
http://rapidshare.com/files/26552878...ka10.part5.rar
http://rapidshare.com/files/26553572...ka10.part6.rar
http://rapidshare.com/files/26554291...ka10.part7.rar
http://rapidshare.com/files/26554479...ka10.part8.rar



Megaupload

http://www.megaupload.com/?d=FUIQ352X
http://www.megaupload.com/?d=X9HUARJH
http://www.megaupload.com/?d=MV17S2FG
http://www.megaupload.com/?d=1AVSYCBY
http://www.megaupload.com/?d=7CX8OMWB
http://www.megaupload.com/?d=CPZSS1CW
http://www.megaupload.com/?d=RPWFEII0
http://www.megaupload.com/?d=EAIIJK1C

zack1404
Admin

Masculino Cantidad de envíos : 810
Edad : 35
Localización : Honduras
Fecha de inscripción : 09/03/2009

Ver perfil de usuario http://soft-zone.darkbb.com

Volver arriba Ir abajo

- Temas similares
Compartir este artículo en : Excite BookmarksDiggRedditDel.icio.usGoogleLiveSlashdotNetscapeTechnoratiStumbleUponNewsvineFurlYahooSmarking

 
Permisos de este foro:
No puedes responder a temas en este foro.