http://soft-zone.darkbb.com
Bienvenidos Si Quieres Ser Parte De El Staff De http://soft-zone.darkbb.com ?
Tu Eres Quien Elige .
NUEVA DIRECCION
Estaremos Funcionando En Esta Direccion http://buenosresultados.com//
Últimos temas
» Windows Server 2008 SP1 Todo En Uno DVD Spanish
Miér 4 Feb - 20:46 por roberthcr1186

» AIO Electronic Software Suite 3
Sáb 4 Ene - 5:35 por P7ST7R

» NOTICIAS!!!!
Jue 28 Nov - 18:58 por zack1404

» nueva direccion
Jue 28 Nov - 18:41 por zack1404

» nueva direccion
Jue 28 Nov - 18:41 por zack1404

» nueva direccion
Jue 28 Nov - 18:40 por zack1404

» nueva direccion
Jue 28 Nov - 18:40 por zack1404

» nueva direccion
Jue 28 Nov - 18:39 por zack1404

» nueva direccion
Jue 28 Nov - 18:38 por zack1404

» nueva direccion
Jue 28 Nov - 18:38 por zack1404

» nueva direccion
Jue 28 Nov - 18:38 por zack1404

» nueva direccion
Jue 28 Nov - 18:37 por zack1404

» nueva direccion
Jue 28 Nov - 18:37 por zack1404

» nueva direccion
Jue 28 Nov - 18:35 por zack1404

» nueva direccion
Jue 28 Nov - 18:34 por zack1404

» Michael Jackson & Janet Jackson - Scream (Video Clip) DVDrip
Jue 28 Nov - 18:32 por zack1404

» Un Pack de Colección
Miér 27 Nov - 22:36 por zack1404

» NOTICIAS!!!!
Miér 27 Nov - 22:29 por zack1404

» 100 audiolibros quinta Parte
Dom 7 Abr - 16:07 por augusthug

» Windows 7 Total Autoactivado DVD [Español][*ISO][Booteable]
Jue 28 Mar - 5:46 por mvisocom

» DISCOGRAFIA DEL GRUPO NICHE -actualizada
Sáb 19 Ene - 23:26 por felixmayz

» Colección de Libros sobre Hacking
Miér 14 Nov - 13:44 por jovanu

» Manual de herrería
Lun 12 Nov - 1:42 por elsiervo26

» Teu Liberacion de Celulares
Miér 7 Nov - 15:07 por jovanu

» Todo En Uno: Xp + Win7 + Programas V3
Miér 31 Oct - 21:41 por K1K3R0

» Dr. House 4° Temporada Completa [Latino][DvdRip]
Miér 31 Oct - 6:28 por bicho12344

» karaoke AIO
Mar 25 Sep - 3:48 por norman

» Musica hondureña para tus fiestas
Sáb 22 Sep - 15:32 por salvashocker

» Crackers Kit 2012 Todas Las Herramientas Para Crackers
Sáb 15 Sep - 21:38 por JUANI_I

» 100 audiolibros cuarta Parte
Mar 11 Sep - 12:46 por elenaricopedraza

Buscar
 
 

Resultados por:
 


Rechercher Búsqueda avanzada

Estadísticas
Tenemos 458 miembros registrados.
El último usuario registrado es Siscu.

Nuestros miembros han publicado un total de 2195 mensajes en 1708 argumentos.
Conectarse

Recuperar mi contraseña

¿Quién está en línea?
En total hay 15 usuarios en línea: 0 Registrados, 0 Ocultos y 15 Invitados

Ninguno

[ Ver toda la lista ]


La mayor cantidad de usuarios en línea fue 66 el Lun 7 Dic - 17:59.

Ingeniería Extrema - Torre espacio Madrid ;[2006];[Documental];[HDTV 720p x264 mkv];AC3(es-Es/en-Us)

Ver el tema anterior Ver el tema siguiente Ir abajo

12072010

Mensaje 

Ingeniería Extrema - Torre espacio Madrid ;[2006];[Documental];[HDTV 720p x264 mkv];AC3(es-Es/en-Us)




TITULO :: .....: Ingeniería Extrema - Torre espacio Madrid
AÑO: ..........: 2006
DIRECTOR: .....: Courtney Hayes
PRODUCTORES EJECUTIVOS: Joel Olicker y Tug Yourgrau
URL: .........: http://store.discovery.com/detail.ph...a=CSE-SPG#tabs
DURACIÓN ......: 00:42:29

Sinopsis:

Este será muy pronto el edificio más alto de España. Una locura de rascacielos de 223 metros de altura. Su increíble forma retorcida ascendiendo hacia lo alto tiene una peculiaridad muy significativa y es que no es de acero, sino que está construido por completo en hormigón. Los plazos de entrega de la obra son muy ajustados y precisos. El tiempo corre contrareloj y una planta completa debe ser levantada en una semana. Descubra cómo trabajan conjuntamente arquitectos e ingenieros para llevar a cabo este espectacular proyecto de construcción.

Datos montaje:

FUENTE VIDEO ..: Extreme Engineering Space Tower Spain 720p x264-HDL
FUENTE AUDIO ..: DVD
MONTADOR: .......: barez
TAMAÑO ............: 1.95 gb
ViDEO.CODEC ....: x264
FRAMERATE ......: 23.976
BITRATE ............: 5 865 Kbps
RESOLUCION ....: 1280 x 720
AUDIO 1 ...........: Spanish AC3 2.0 192 kbit
AUDIO 2 ...........: English AC3 5.1 384 kbit

Montaje realizado por barez miembro de HDS, yo he realizado la subida unicamente.

Capturas:





Media Info:
Código:
eneral
Complete name : INGENIERIA EXTREMA Torre espacio de Madrid.mkv
Format : Matroska
File size : 1.95 GiB
Duration : 42mn 29s
Overall bit rate : 6 572 Kbps
Encoded date : UTC 2009-09-26 11:25:32
Writing application : mkvmerge v2.4.0 ('Fumbling Towards Ecstasy') built on Oct 11 2008 20:13:15
Writing library : libebml v0.7.7 + libmatroska v0.8.1

Video
ID : 1
Format : AVC
Format/Info : Advanced Video Codec
Format profile : High@L5.1
Format settings, CABAC : Yes
Format settings, ReFrames : 11 frames
Muxing mode : Container profile=Unknown@5.1
Codec ID : V_MPEG4/ISO/AVC
Duration : 42mn 27s
Bit rate :
Nominal bit rate : 6 000 Kbps
Width : 1 280 pixels
Height : 720 pixels
Display aspect ratio : 16:9
Frame rate : 23.976 fps
Resolution : 24 bits
Colorimetry : 4:2:0
Scan type : Progressive
Bits/(Pixel*Frame) : 0.265
Stream size : 1.74 GiB (89%)

Language : English

Audio #1
ID : 2
Format : AC-3
Format/Info : Audio Coding 3
Codec ID : A_AC3
Duration : 42mn 29s
Bit rate mode : Constant
Bit rate : 384 Kbps
Channel(s) : 6 channels
Channel positions : Front: L C R, Surround: L R, LFE
Sampling rate : 48.0 KHz
Stream size : 117 MiB (6%)

Audio #2
ID : 3
Format : AC-3
Format/Info : Audio Coding 3
Codec ID : A_AC3
Duration : 42mn 29s
Bit rate mode : Constant
Bit rate : 192 Kbps
Channel(s) : 2 channels
Channel positions : L R
Sampling rate : 48.0 KHz
Video delay : 16ms
Stream size : 58.4 MiB (3%)
Language : Spanish

Link:
DLC

zack1404
Admin

Masculino Cantidad de envíos : 810
Edad : 35
Localización : Honduras
Fecha de inscripción : 09/03/2009

Ver perfil de usuario http://soft-zone.darkbb.com

Volver arriba Ir abajo

- Temas similares
Compartir este artículo en : Excite BookmarksDiggRedditDel.icio.usGoogleLiveSlashdotNetscapeTechnoratiStumbleUponNewsvineFurlYahooSmarking

 
Permisos de este foro:
No puedes responder a temas en este foro.